<?xml version="1.0" standalone="no"?>
<!DOCTYPE svg PUBLIC "-//W3C//DTD SVG 1.1//EN" "http://www.w3.org/Graphics/SVG/1.1/DTD/svg11.dtd">
<svg xmlns="http://www.w3.org/2000/svg">
<defs >
<font id="Heebo" horiz-adv-x="1072" ><font-face
    font-family="Heebo Light"
    units-per-em="2048"
    panose-1="0 0 0 0 0 0 0 0 0 0"
    ascent="2146"
    descent="-862"
    alphabetic="0" />
<glyph unicode=" " horiz-adv-x="499" />
<glyph unicode="!" horiz-adv-x="462" d="M284 406H174L167 1456H291L284 406ZM154 71Q154 104 175 127T236 151Q274 151 296 128T319 71Q319 37 297 15T236 -8Q197 -8 176 14T154 71Z" />
<glyph unicode="&quot;" horiz-adv-x="589" d="M244 1396L224 1083H143L146 1390V1536H244V1396ZM479 1396L459 1083H379L382 1394V1536H479V1396Z" />
<glyph unicode="#" horiz-adv-x="1191" d="M537 1456H637L363 0H263L537 1456ZM951 1456H1051L776 0H676L951 1456ZM161 944V1040H1201V944H161ZM85 410V504H1126V410H85Z" />
<glyph unicode="$" horiz-adv-x="1136" d="M642 1413H539V1677H642V1413ZM638 -208H536V38H638V-208ZM902 359Q902 433 872 487T770 587T575 674Q449 715 358 767T217 897T167 1095Q167 1212 218 1298T365 1430T588 1477Q720 1477 815 1425T960 1273T1011 1028H892Q892
1176 814 1273T588 1371Q485 1371 418 1334T319 1234T287 1098Q287 1025 314 970T412 871T616 781Q742 740 832 688T972 558T1021 361Q1021 240 966 155T812 24T581 -21Q496 -21 413 1T263 75T156 210T116 419H235Q235 322 266 258T348 155T459 101T581 85Q682
85 753 122T863 221T902 359Z" />
<glyph unicode="%" horiz-adv-x="1514" d="M110 1176Q110 1259 145 1327T244 1436T394 1477Q482 1477 546 1436T645 1327T680 1176V1099Q680 1018 645 950T547 841T396 800Q309 800 245 841T145 950T110 1099V1176ZM207 1099Q207 1046 227 998T290 918T396 887Q460
887 501 917T562 996T583 1099V1176Q583 1231 563 1279T500 1359T394 1390Q332 1390 290 1359T228 1280T207 1176V1099ZM842 357Q842 439 877 507T976 616T1127 657Q1215 657 1278 616T1377 507T1412 357V279Q1412 197 1378 129T1280 20T1129 -21Q1041 -21 977
20T877 129T842 279V357ZM939 279Q939 225 959 177T1022 97T1129 66Q1192 66 1233 96T1295 176T1315 279V357Q1315 443 1269 506T1127 570Q1033 570 986 507T939 357V279ZM434 121L360 169L1071 1307L1145 1259L434 121Z" />
<glyph unicode="&amp;" horiz-adv-x="1260" d="M624 961Q688 1008 729 1062T771 1191Q771 1262 720 1318T573 1375Q468 1375 414 1308T359 1149Q359 1077 402 997T523 826L1232 0H1087L484 701Q373 830 306 931T239 1145Q239 1248 280 1322T396 1436T573 1477Q671
1477 741 1438T847 1334T884 1191Q884 1126 856 1070T783 969T690 885L423 681Q338 611 296 553T241 450T228 371Q228 295 264 229T374 122T561 81Q654 81 742 122T899 239T1009 419T1050 652H1161Q1161 510 1120 395T998 192Q990 182 988 177T977 162Q897 78 789
29T561 -20Q421 -20 320 29T163 166T108 371Q108 459 145 529T247 662T390 785L624 961Z" />
<glyph unicode="&apos;" horiz-adv-x="349" d="M227 1396L209 1090H120L125 1387V1536H227V1396Z" />
<glyph unicode="(" horiz-adv-x="654" d="M141 588Q141 784 181 953T289 1259T435 1491T593 1633L622 1551Q555 1504 491 1415T375 1201T291 921T260 592V571Q260 396 291 242T374 -37T491 -254T622 -393L593 -470Q515 -423 436 -330T289 -102T182 203T141 573V588Z" />
<glyph unicode=")" horiz-adv-x="668" d="M514 573Q514 374 473 204T366 -102T220 -330T62 -470L33 -393Q100 -346 164 -256T280 -40T364 241T395 571V592Q395 767 363 922T278 1203T161 1419T33 1556L62 1633Q140 1587 219 1492T365 1260T473 954T514 588V573Z" />
<glyph unicode="*" horiz-adv-x="869" d="M361 1001L29 1108L61 1209L393 1087L389 1456H494L485 1084L810 1211L843 1109L510 995L733 700L647 637L433 943L229 639L144 700L361 1001Z" />
<glyph unicode="+" horiz-adv-x="1156" d="M1073 628H75V741H1073V628ZM630 146H510V1206H630V146Z" />
<glyph unicode="," horiz-adv-x="393" d="M272 49Q272 -43 235 -128T131 -272L60 -221Q91 -179 112 -138T143 -52T154 46V189H272V49Z" />
<glyph unicode="-" horiz-adv-x="586" d="M529 592H49V694H529V592Z" />
<glyph unicode="." horiz-adv-x="489" d="M146 73Q146 108 168 132T230 156Q270 156 293 132T316 73Q316 38 293 15T230 -8Q191 -8 169 15T146 73Z" />
<glyph unicode="/" horiz-adv-x="814" d="M139 -125H30L638 1456H747L139 -125Z" />
<glyph unicode="0" horiz-adv-x="1136" d="M1015 607Q1015 394 963 255T810 48T569 -20Q430 -20 329 48T174 255T120 607V853Q120 1067 173 1205T327 1410T567 1477Q708 1477 808 1410T961 1205T1015 853V607ZM896 868Q896 1034 859 1147T750 1317T567 1375Q459
1375 386 1318T277 1147T240 868V594Q240 431 277 316T387 141T569 81Q679 81 751 141T859 316T896 594V868Z" />
<glyph unicode="1" horiz-adv-x="1136" d="M694 0H574V1312L179 1165V1278L674 1462H694V0Z" />
<glyph unicode="2" horiz-adv-x="1136" d="M1050 0H137V93L614 633Q704 735 757 811T833 951T857 1075Q857 1207 779 1291T553 1375Q452 1375 378 1331T265 1211T225 1037H105Q105 1157 158 1257T312 1416T553 1476Q750 1476 863 1373T977 1086Q977 998 937 909T831
732T691 560L284 101H1050V0Z" />
<glyph unicode="3" horiz-adv-x="1136" d="M526 794Q638 794 713 832T827 935T866 1077Q866 1165 833 1232T733 1337T560 1375Q468 1375 396 1338T282 1234T240 1074H121Q121 1193 178 1283T334 1425T560 1476Q689 1476 784 1429T932 1292T985 1073Q985 1007 957
944T872 828T733 745T540 714H404V794H526ZM404 770H540Q665 770 754 742T900 662T985 543T1012 396Q1012 263 954 171T795 29T565 -20Q477 -20 394 6T244 83T138 213T99 395H219Q219 303 263 233T385 122T565 81Q720 81 806 161T893 392Q893 497 847 563T718 660T526
691H404V770Z" />
<glyph unicode="4" horiz-adv-x="1136" d="M1099 368H68V437L741 1456H841L699 1209L214 470H1099V368ZM872 0H752V1456H872V0Z" />
<glyph unicode="5" horiz-adv-x="1136" d="M219 747L290 1456H1018V1346H393L341 853Q379 880 451 906T615 933Q745 933 842 876T993 714T1047 464Q1047 325 1001 216T859 43T612 -20Q525 -20 449 4T312 79T215 205T168 383H283Q300 236 384 159T612 81Q715 81
785 126T890 256T926 462Q926 565 888 647T776 776T594 824Q490 824 429 796T314 720L219 747Z" />
<glyph unicode="6" horiz-adv-x="1136" d="M843 1467V1363H826Q688 1363 581 1318T400 1189T288 984T250 714V513Q250 378 297 282T424 134T602 82Q700 82 769 135T876 276T914 473Q914 576 880 662T774 801T595 854Q503 854 423 812T293 699T239 546L171 547Q178
641 213 716T309 845T446 927T614 956Q753 956 846 890T986 715T1033 478Q1033 338 981 225T833 46T602 -20Q492 -20 405 22T257 137T163 308T130 515V643Q130 830 173 981T302 1241T519 1408T826 1467H843Z" />
<glyph unicode="7" horiz-adv-x="1136" d="M1035 1388L412 0H288L905 1355H77V1456H1035V1388Z" />
<glyph unicode="8" horiz-adv-x="1136" d="M1033 386Q1033 254 972 163T805 26T570 -20Q439 -20 334 26T168 163T106 386Q106 501 166 589T331 728T568 778Q700 778 805 728T971 590T1033 386ZM913 386Q913 479 868 549T745 657T568 696Q469 696 392 658T270 549T226
386Q226 289 270 221T392 117T570 81Q671 81 748 117T869 221T913 386ZM995 1082Q995 975 939 892T786 761T569 713Q447 713 351 760T199 891T143 1082Q143 1209 198 1296T350 1430T568 1476Q689 1476 785 1430T938 1297T995 1082ZM876 1083Q876 1168 836 1233T726
1337T568 1375Q480 1375 411 1339T303 1238T263 1083Q263 995 302 932T411 833T569 798Q658 798 726 833T835 931T876 1083Z" />
<glyph unicode="9" horiz-adv-x="1136" d="M328 93Q487 93 594 139T765 269T857 463T886 704V907Q886 1060 842 1164T721 1321T543 1374Q443 1374 370 1318T258 1170T219 970Q219 871 255 782T361 636T534 580Q620 580 687 613T802 699T876 813T904 933L964 934Q964
843 931 761T837 614T695 514T520 477Q384 477 291 547T150 728T102 965Q102 1105 154 1221T304 1406T541 1476Q658 1476 745 1434T890 1314T976 1130T1005 896V779Q1005 649 985 531T918 315T794 143T601 29T328 -11H301L302 93H328Z" />
<glyph unicode=":" horiz-adv-x="430" d="M382 73Q382 108 404 132T466 156Q506 156 529 132T552 73Q552 38 529 15T466 -8Q427 -8 405 15T382 73ZM129 996Q129 1031 151 1055T213 1079Q253 1079 276 1055T299 996Q299 961 276 938T213 915Q174 915 152 938T129 996Z" />
<glyph unicode=";" horiz-adv-x="399" d="M118 996Q118 1031 140 1055T202 1079Q242 1079 265 1055T288 996Q288 961 265 938T202 915Q163 915 141 938T118 996ZM272 49Q272 -43 235 -128T131 -272L60 -221Q91 -179 112 -138T143 -52T154 46V189H272V49Z" />
<glyph unicode="&lt;" horiz-adv-x="1047" d="M905 356V229L77 608V686L158 678L905 356ZM159 634L77 627V705L905 1083V958L159 634Z" />
<glyph unicode="=" horiz-adv-x="1133" d="M983 829H149V935H983V829ZM983 418H149V524H983V418Z" />
<glyph unicode="&gt;" horiz-adv-x="1062" d="M124 962V1085L969 707V629L880 641L124 962ZM882 680L969 690V611L124 232V356L882 680Z" />
<glyph unicode="?" horiz-adv-x="931" d="M376 405Q377 490 393 549T444 658T541 768Q595 821 636 866T700 966T724 1102Q724 1221 661 1295T472 1370Q356 1370 281 1303T204 1116H84Q86 1230 138 1310T278 1433T472 1476Q651 1476 747 1373T844 1103Q844 1014
814 943T731 808T609 681Q544 627 520 556T496 405H376ZM360 71Q360 104 382 127T442 151Q481 151 503 128T525 71Q525 37 503 15T442 -8Q404 -8 382 14T360 71Z" />
<glyph unicode="@" horiz-adv-x="1870" d="M1751 513Q1748 419 1725 325T1654 153T1535 27T1362 -20Q1234 -20 1169 69T1117 311L1167 880H1268L1218 311Q1211 231 1225 183T1265 109T1320 75T1374 66Q1463 66 1524 125T1619 285T1658 513Q1671 765 1604 947T1383
1228T981 1327Q766 1327 600 1222T334 927T222 478Q213 292 254 138T382 -129T601 -303T903 -364Q992 -364 1082 -343T1234 -285L1264 -364Q1198 -408 1094 -430T899 -453Q646 -453 468 -340T201 -18T122 478Q131 688 196 861T374 1159T641 1353T985 1421Q1251
1421 1425 1310T1681 995T1751 513ZM671 427Q660 325 676 246T735 122T846 78Q898 78 952 104T1054 197T1135 385L1183 324Q1135 155 1040 68T824 -20Q730 -20 668 36T579 192T564 427Q580 600 642 725T797 920T999 989Q1100 989 1158 957T1268 880L1200 815Q1169
849 1121 873T1005 898Q925 898 855 847T736 691T671 427Z" />
<glyph unicode="A" horiz-adv-x="1280" d="M159 0H31L581 1456H671L663 1369L159 0ZM616 1369L610 1456H698L1249 0H1121L616 1369ZM1031 408H258V513H1031V408Z" />
<glyph unicode="B" horiz-adv-x="1255" d="M276 701L274 804H627Q789 804 877 873T966 1079Q966 1217 878 1284T615 1351H308V0H185V1456H615Q837 1456 963 1365T1090 1076Q1090 986 1051 914T938 796T763 739L686 701H276ZM237 0L300 104H677Q838 104 928 185T1019
408Q1019 491 983 557T874 662T686 701H431L433 804H794L816 766Q914 756 987 706T1101 579T1142 410Q1142 211 1014 106T677 0H237Z" />
<glyph unicode="C" horiz-adv-x="1330" d="M1215 454Q1200 307 1135 201T955 37T679 -20Q514 -20 391 62T200 292T132 636V819Q132 1016 200 1164T393 1394T688 1476Q844 1476 956 1420T1134 1258T1215 1001H1092Q1070 1177 973 1274T688 1371Q553 1371 457 1303T308
1111T255 821V636Q255 477 305 352T449 156T679 84Q808 84 894 125T1028 249T1092 454H1215Z" />
<glyph unicode="D" horiz-adv-x="1342" d="M253 0L255 104H583Q739 104 853 174T1029 370T1091 661V797Q1091 966 1029 1090T855 1282T592 1351H247V1456H592Q774 1456 914 1374T1133 1144T1213 795V661Q1213 461 1134 313T912 82T583 0H253ZM308 0H185V1456H308V0Z" />
<glyph unicode="E" horiz-adv-x="1165" d="M1090 0H271V104H1090V0ZM308 0H185V1456H308V0ZM988 698H271V803H988V698ZM1085 1351H271V1456H1085V1351Z" />
<glyph unicode="F" horiz-adv-x="1152" d="M308 0H185V1456H308V0ZM986 680H267V786H986V680ZM1087 1351H267V1456H1087V1351Z" />
<glyph unicode="G" horiz-adv-x="1401" d="M1235 173Q1210 137 1149 92T985 14T729 -20Q558 -20 426 61T220 292T145 645V822Q145 1023 213 1169T409 1396T710 1476Q872 1476 983 1420T1156 1267T1234 1046H1111Q1097 1133 1053 1207T926 1326T710 1371Q568 1371
470 1303T320 1111T269 824V645Q269 476 326 350T487 154T730 84Q841 84 918 105T1044 156T1113 211V588H722V692H1235V173Z" />
<glyph unicode="H" horiz-adv-x="1449" d="M1163 698H279V803H1163V698ZM308 0H185V1456H308V0ZM1263 0H1140V1456H1263V0Z" />
<glyph unicode="I" horiz-adv-x="546" d="M335 0H212V1456H335V0Z" />
<glyph unicode="J" horiz-adv-x="1127" d="M828 1456H951V434Q951 288 894 187T738 33T511 -20Q381 -20 282 26T127 165T72 402H195Q195 244 278 164T511 84Q600 84 671 124T785 241T828 434V1456Z" />
<glyph unicode="K" horiz-adv-x="1293" d="M308 0H185V1456H308V0ZM580 789L264 479L252 615L506 879L1053 1456H1209L580 789ZM493 748L567 847L1256 0H1106L493 748Z" />
<glyph unicode="L" horiz-adv-x="1080" d="M1027 0H272V104H1027V0ZM308 0H185V1456H308V0Z" />
<glyph unicode="M" horiz-adv-x="1772" d="M347 1456L885 171L1424 1456H1547L932 0H838L223 1456H347ZM294 1456L307 637V0H185V1456H294ZM1587 1456V0H1464V637L1478 1456H1587Z" />
<glyph unicode="N" horiz-adv-x="1455" d="M1269 0H1145L308 1246V0H185V1456H308L1147 210V1456H1269V0Z" />
<glyph unicode="O" horiz-adv-x="1387" d="M1260 650Q1260 446 1191 296T994 63T694 -20Q525 -20 397 62T198 295T126 650V806Q126 1010 197 1160T395 1393T692 1476Q865 1476 992 1394T1190 1161T1260 806V650ZM1138 808Q1138 980 1085 1105T933 1299T692 1368Q555
1368 456 1300T303 1106T249 808V650Q249 477 303 351T457 156T694 87Q836 87 935 156T1086 351T1138 650V808Z" />
<glyph unicode="P" horiz-adv-x="1261" d="M265 593V698H681Q811 698 892 740T1010 856T1048 1020Q1048 1109 1011 1184T892 1305T681 1351H308V0H185V1456H681Q841 1456 950 1401T1115 1249T1171 1022Q1171 888 1116 792T951 644T681 593H265Z" />
<glyph unicode="Q" horiz-adv-x="1387" d="M1238 -178L1154 -255L822 34L905 114L1238 -178ZM1256 650Q1256 446 1187 296T990 63T690 -20Q520 -20 392 62T193 295T121 650V806Q121 1010 192 1160T390 1393T688 1476Q861 1476 988 1394T1186 1161T1256 806V650ZM1133
808Q1133 980 1081 1105T929 1299T688 1368Q551 1368 452 1300T299 1106T245 808V650Q245 477 299 351T453 156T690 87Q831 87 930 156T1081 351T1133 650V808Z" />
<glyph unicode="R" horiz-adv-x="1301" d="M655 1456Q806 1456 917 1407T1088 1263T1149 1028Q1149 925 1106 841T987 701T810 623L767 607H262L260 711H682Q797 711 873 755T987 872T1026 1028Q1026 1177 931 1264T655 1351H305V0H182V1456H655ZM704 651L836
652L1212 13V0H1080L704 651Z" />
<glyph unicode="S" horiz-adv-x="1213" d="M1009 358Q1009 439 973 496T849 597T611 685Q501 715 414 752T264 837T168 949T135 1100Q135 1213 197 1297T370 1429T624 1476Q777 1476 889 1418T1062 1262T1123 1041H1000Q1000 1136 956 1210T827 1328T624 1371Q504
1371 423 1335T300 1237T259 1103Q259 1034 295 979T417 878T649 793Q804 752 912 696T1076 559T1133 360Q1133 242 1068 157T890 26T632 -20Q535 -20 439 5T264 82T137 218T89 416H212Q212 324 249 261T347 158T483 102T632 84Q747 84 831 118T962 214T1009 358Z"
/>
<glyph unicode="T" horiz-adv-x="1223" d="M673 0H551V1456H673V0ZM1172 1351H53V1456H1172V1351Z" />
<glyph unicode="U" horiz-adv-x="1347" d="M1187 1456V470Q1187 306 1118 197T933 34T675 -20Q530 -20 414 34T231 197T163 470V1456H285V470Q285 343 335 257T473 128T675 84Q788 84 876 127T1014 257T1064 470V1456H1187Z" />
<glyph unicode="V" horiz-adv-x="1264" d="M1099 1456H1233L691 0H592L640 181L1099 1456ZM623 181L673 0H573L32 1456H166L623 181Z" />
<glyph unicode="W" horiz-adv-x="1836" d="M870 1456H969L889 1139L552 0H457L554 384L870 1456ZM453 393L533 0H434L61 1456H187L453 393ZM1657 1456H1783L1411 0H1312L1394 394L1657 1456ZM1292 384L1388 0H1293L962 1139L882 1456H981L1292 384Z" />
<glyph unicode="X" horiz-adv-x="1254" d="M628 840L1037 1456H1184L702 739L1199 0H1052L628 636L202 0H56L553 739L71 1456H218L628 840Z" />
<glyph unicode="Y" horiz-adv-x="1226" d="M611 662L1056 1456H1198L673 549V0H549V549L24 1456H170L611 662Z" />
<glyph unicode="Z" horiz-adv-x="1225" d="M1138 0H135V104H1138V0ZM169 0H91V93L1026 1456H1106V1368L169 0ZM1052 1352H117V1456H1052V1352Z" />
<glyph unicode="[" horiz-adv-x="491" d="M494 1563H283V-211H494V-312H164V1664H494V1563Z" />
<glyph unicode="\" horiz-adv-x="807" d="M49 1456H166L774 -125H657L49 1456Z" />
<glyph unicode="]" horiz-adv-x="491" d="M1 1664H331V-312H1V-211H211V1563H1V1664Z" />
<glyph unicode="^" horiz-adv-x="852" d="M193 729H78L377 1456H456L434 1331L193 729ZM408 1331L386 1456H466L765 729H648L408 1331Z" />
<glyph unicode="_" horiz-adv-x="885" d="M883 -101H1V0H883V-101Z" />
<glyph unicode="`" horiz-adv-x="585" d="M439 1257H330L103 1536H248L439 1257Z" />
<glyph unicode="a" horiz-adv-x="1098" d="M815 752Q815 868 743 935T536 1002Q452 1002 387 973T284 894T246 783L126 784Q126 866 178 938T324 1056T541 1102Q657 1102 745 1063T884 946T935 750V227Q935 171 943 111T968 12V0H840Q828 36 822 90T815 194V752ZM845
538H610Q427 538 324 474T220 298Q220 210 285 148T463 86Q563 86 639 122T765 220T833 352L885 283Q872 233 838 181T748 83T619 9T450 -20Q344 -20 266 20T144 129T100 287Q100 447 232 538T594 630H843L845 538Z" />
<glyph unicode="b" horiz-adv-x="1135" d="M275 1536V210L267 0H155V1536H275ZM1028 530Q1028 368 980 244T839 50T615 -20Q485 -20 395 34T253 182T184 396V667Q204 798 256 895T397 1047T613 1102Q745 1102 837 1035T979 843T1028 551V530ZM907 551Q907 677
875 778T772 939T590 998Q504 998 444 969T345 894T282 792T248 685V373Q265 297 306 231T419 125T592 84Q701 84 770 143T873 303T907 530V551Z" />
<glyph unicode="c" horiz-adv-x="1056" d="M556 81Q632 81 698 110T808 196T858 335H973Q968 232 910 152T760 26T556 -20Q405 -20 302 51T147 245T95 520V562Q95 715 147 837T302 1030T555 1102Q671 1102 763 1055T912 922T973 718H858Q853 805 812 868T704 966T555
1001Q433 1001 358 939T248 777T214 562V520Q214 405 248 305T357 143T556 81Z" />
<glyph unicode="d" horiz-adv-x="1138" d="M860 1536H980V0H868L860 210V1536ZM109 551Q109 719 160 843T304 1034T527 1102Q653 1102 741 1048T881 896T953 667V396Q937 276 885 182T744 34T525 -20Q397 -20 304 50T160 244T109 530V551ZM229 530Q229 404 263
304T367 144T547 84Q650 84 720 123T832 228T893 373V685Q881 737 858 792T796 893T696 969T549 998Q439 998 368 939T263 779T229 551V530Z" />
<glyph unicode="e" horiz-adv-x="1059" d="M575 -20Q434 -20 325 48T153 236T90 511V554Q90 721 154 844T324 1034T553 1102Q691 1102 787 1039T932 863T982 607V534H163V635H862V649Q860 740 826 820T723 950T553 1001Q452 1001 374 944T253 787T210 554V511Q210
391 256 294T387 139T580 81Q676 81 750 116T883 229L959 172Q906 93 814 37T575 -20Z" />
<glyph unicode="f" horiz-adv-x="678" d="M243 0V1217Q243 1381 328 1469T562 1557Q594 1557 626 1554T690 1540L681 1441Q656 1447 631 1449T571 1452Q474 1452 418 1391T362 1217V0H243ZM621 984H64V1082H621V984Z" />
<glyph unicode="g" horiz-adv-x="1136" d="M980 1082V19Q980 -122 927 -223T776 -378T546 -432Q479 -432 409 -412T276 -350T169 -247L236 -174Q302 -255 377 -293T539 -331Q692 -331 776 -240T860 15V844L868 1082H980ZM109 551Q109 719 159 843T303 1034T527
1102Q621 1102 694 1071T820 982T905 845T953 667V396Q937 276 885 182T744 34T525 -20Q396 -20 303 50T159 244T109 530V551ZM229 530Q229 404 263 304T367 144T547 84Q650 84 719 123T829 228T890 373V685Q879 737 857 792T795 893T695 969T549 998Q439 998 368
939T263 779T229 551V530Z" />
<glyph unicode="h" horiz-adv-x="1124" d="M276 0H156V1536H276V0ZM196 639Q204 766 259 871T408 1039T627 1102Q736 1102 813 1062T931 935T973 704V0H853V705Q853 817 822 881T734 972T599 999Q513 999 449 962T341 865T274 737T250 609L196 639Z" />
<glyph unicode="i" horiz-adv-x="460" d="M290 0H171V1082H290V0ZM150 1395Q150 1429 171 1452T231 1476Q270 1476 292 1453T314 1395Q314 1362 292 1339T231 1316Q193 1316 172 1339T150 1395Z" />
<glyph unicode="j" horiz-adv-x="468" d="M286 1082V-129Q286 -278 213 -357T2 -437Q-23 -437 -52 -432T-104 -418L-102 -319Q-85 -324 -60 -328T-12 -333Q73 -333 119 -282T166 -129V1082H286ZM145 1395Q145 1429 167 1452T227 1476Q265 1476 287 1453T310 1395Q310
1362 288 1339T227 1316Q189 1316 167 1339T145 1395Z" />
<glyph unicode="k" horiz-adv-x="1004" d="M276 0H157V1536H276V0ZM450 581L234 373L216 489L390 675L803 1082H955L450 581ZM399 563L465 665L995 0H851L399 563Z" />
<glyph unicode="l" horiz-adv-x="460" d="M290 0H171V1536H290V0Z" />
<glyph unicode="m" horiz-adv-x="1816" d="M270 0H150V1082H265L270 858V0ZM190 639Q198 766 250 871T395 1039T620 1102Q778 1102 873 1014T968 720V0H848V716Q848 824 815 885T723 973T585 999Q493 999 430 962T327 865T269 737T248 609L190 639ZM887 701Q894
805 946 897T1092 1045T1314 1102Q1427 1102 1506 1062T1626 934T1668 705V0H1548V706Q1548 821 1515 884T1423 973T1285 999Q1206 998 1148 970T1050 898T990 803T967 703L887 701Z" />
<glyph unicode="n" horiz-adv-x="1126" d="M276 0H156V1082H271L276 851V0ZM196 639Q204 766 259 871T408 1039T627 1102Q736 1102 813 1062T931 935T973 704V0H853V705Q853 817 822 881T734 972T599 999Q513 999 449 962T341 865T274 737T250 609L196 639Z" />
<glyph unicode="o" horiz-adv-x="1148" d="M91 557Q91 715 151 838T319 1031T573 1102Q720 1102 829 1032T997 838T1057 557V524Q1057 367 998 244T830 51T575 -20Q428 -20 320 50T151 244T91 524V557ZM211 524Q211 406 253 305T376 143T575 81Q692 81 772 142T895
305T937 524V557Q937 674 895 775T772 938T573 1001Q456 1001 375 939T253 775T211 557V524Z" />
<glyph unicode="p" horiz-adv-x="1135" d="M275 -416H155V1082H267L275 874V-416ZM1027 530Q1027 368 979 244T838 50T614 -20Q484 -20 393 32T248 177T178 388V667Q198 798 252 895T395 1047T612 1102Q744 1102 836 1035T978 843T1027 551V530ZM906 551Q906 677
872 778T766 939T585 998Q499 998 439 969T339 894T276 792T242 685V364Q261 288 302 224T414 120T587 81Q696 81 766 141T871 302T906 530V551Z" />
<glyph unicode="q" horiz-adv-x="1143" d="M859 874L867 1082H979V-416H859V874ZM109 551Q109 719 159 843T303 1034T528 1102Q655 1102 744 1048T886 896T959 667V396Q944 276 891 182T747 34T526 -20Q396 -20 302 50T159 244T109 530V551ZM229 530Q229 404 263
303T369 141T549 81Q652 81 722 121T835 228T897 373V685Q886 736 863 791T799 893T697 971T551 1001Q441 1001 370 941T264 779T229 551V530Z" />
<glyph unicode="r" horiz-adv-x="689" d="M276 0H156V1082H273L276 903V0ZM656 981Q636 984 617 986T576 988Q473 988 403 938T297 804T257 616L212 600Q212 741 251 854T372 1035T580 1102Q603 1102 625 1099T659 1090L656 981Z" />
<glyph unicode="s" horiz-adv-x="1038" d="M805 276Q805 320 783 363T698 442T515 504Q395 529 311 566T182 661T138 808Q138 889 184 955T316 1062T519 1102Q644 1102 733 1060T871 945T919 779H798Q798 863 726 932T519 1001Q426 1001 368 973T284 901T257 812Q257
764 279 727T363 659T546 601Q677 572 760 531T884 429T925 282Q925 193 876 125T737 18T525 -20Q388 -20 294 25T151 145T102 304H221Q227 219 274 171T390 102T525 81Q617 81 679 108T773 180T805 276Z" />
<glyph unicode="t" horiz-adv-x="659" d="M567 984H24V1082H567V984ZM342 1360V263Q342 188 362 150T414 98T484 85Q511 85 535 88T580 95L585 -4Q563 -11 528 -15T458 -20Q389 -20 336 5T253 93T222 264V1360H342Z" />
<glyph unicode="u" horiz-adv-x="1125" d="M850 1082H970V0H854L850 250V1082ZM934 452Q934 316 891 210T754 42T508 -20Q349 -20 251 74T152 390V1082H272V388Q272 272 306 206T396 112T522 84Q654 84 730 135T839 270T872 450L934 452Z" />
<glyph unicode="v" horiz-adv-x="985" d="M822 1082H946L541 0H453L476 114L822 1082ZM513 111L532 0H444L38 1082H162L513 111Z" />
<glyph unicode="w" horiz-adv-x="1545" d="M717 1082H802L752 858L479 0H395L457 254L717 1082ZM415 249L464 0H377L63 1082H187L415 249ZM1350 1082H1473L1159 0H1073L1127 252L1350 1082ZM1077 261L1141 0H1057L778 859L731 1082H820L1077 261Z" />
<glyph unicode="x" horiz-adv-x="997" d="M496 644L789 1082H931L564 552L946 0H806L497 458L190 0H48L431 552L64 1082H205L496 644Z" />
<glyph unicode="y" horiz-adv-x="974" d="M815 1082H944L486 -174Q472 -211 451 -256T395 -342T309 -410T183 -437Q170 -437 152 -435T117 -430T91 -424V-324Q102 -327 123 -329T152 -331Q250 -331 302 -282T388 -135L477 108L815 1082ZM508 152L540 28L452 -21L33
1082H163L508 152Z" />
<glyph unicode="z" horiz-adv-x="997" d="M938 0H131V101H938V0ZM162 0H88V89L819 1082H894V993L162 0ZM841 980H108V1082H841V980Z" />
<glyph unicode="{" horiz-adv-x="677" d="M664 1518Q531 1476 476 1372T420 1132V905Q420 810 384 733T271 611T69 566V648Q192 648 246 717T300 905V1132Q300 1237 330 1328T434 1489T637 1597L664 1518ZM637 -404Q508 -365 435 -297T331 -137T300 59V285Q300
402 246 472T69 543V625Q194 625 271 580T384 457T420 285V59Q420 -79 477 -180T666 -325L637 -404Z" />
<glyph unicode="|" horiz-adv-x="453" d="M280 -270H179V1456H280V-270Z" />
<glyph unicode="}" horiz-adv-x="677" d="M39 1597Q169 1559 242 1490T346 1329T376 1132V905Q376 787 430 718T607 648V570Q482 570 405 614T292 734T256 905V1132Q256 1268 201 1372T12 1518L39 1597ZM10 -325Q143 -281 199 -180T256 59V285Q256 380 292 455T405
575T607 620V543Q485 543 431 473T376 285V59Q376 -46 346 -137T243 -296T39 -404L10 -325Z" />
<glyph unicode="~" horiz-adv-x="1403" d="M1254 764Q1254 673 1219 596T1118 471T958 423Q869 423 804 460T660 568Q598 625 550 653T441 681Q353 681 304 622T254 450H146Q146 544 180 620T281 742T441 788Q530 788 597 750T740 643Q805 584 853 557T958 530Q1049
530 1099 594T1150 765L1254 764Z" />
<glyph unicode="&#xa0;" horiz-adv-x="499" />
<glyph unicode="&#xa1;" horiz-adv-x="453" d="M175 690H285L292 -360H168L175 690ZM305 1023Q305 989 284 966T224 942Q185 942 163 965T141 1023Q141 1056 163 1079T224 1102Q262 1102 283 1079T305 1023Z" />
<glyph unicode="&#xa2;" horiz-adv-x="1115" d="M637 1050H516V1318H637V1050ZM637 -245H516V22H637V-245ZM581 81Q657 81 723 110T833 196T882 335H997Q992 232 934 152T784 26T581 -20Q430 -20 327 51T172 245T119 520V562Q119 715 171 837T327 1030T580 1102Q696
1102 788 1055T936 922T997 718H882Q877 805 836 868T729 966T580 1001Q457 1001 382 939T273 777T239 562V520Q239 405 273 305T382 143T581 81Z" />
<glyph unicode="&#xa3;" horiz-adv-x="1170" d="M97 0V104H1094V0H97ZM93 645V750H745V645H93ZM414 369Q416 266 391 187T313 66L196 104Q231 114 252 157T282 258T290 368L269 1039Q269 1177 320 1274T463 1424T674 1476Q862 1476 965 1368T1068 1088H944Q944
1189 906 1251T804 1343T666 1372Q545 1372 469 1286T392 1039L414 369Z" />
<glyph unicode="&#xa4;" horiz-adv-x="1481" d="M258 608Q258 502 296 408T400 243T553 131T740 91Q839 91 926 131T1079 242T1183 408T1221 608Q1221 715 1184 808T1080 972T926 1083T740 1123Q641 1123 554 1083T400 973T296 809T258 608ZM145 608Q145 741 191
855T319 1054T509 1186T740 1234Q863 1234 971 1187T1161 1054T1289 855T1335 608Q1335 475 1289 361T1161 162T971 28T740 -20Q617 -20 509 28T320 161T192 361T145 608ZM1174 972L1087 1059L1289 1265L1376 1178L1174 972ZM195 -26L110 60L312 266L397 180L195
-26ZM1087 179L1174 266L1376 60L1289 -27L1087 179ZM110 1178L195 1264L397 1058L312 972L110 1178Z" />
<glyph unicode="&#xa5;" horiz-adv-x="1057" d="M945 617H109V706H945V617ZM945 324H109V413H945V324ZM893 1456H1030L585 617H498L514 703L893 1456ZM544 699L556 617H470L24 1456H163L544 699ZM587 0H463V730H587V0Z" />
<glyph unicode="&#xa6;" horiz-adv-x="445" d="M160 -270V501H279V-270H160ZM279 698H160V1456H279V698Z" />
<glyph unicode="&#xa7;" horiz-adv-x="1240" d="M692 211Q839 211 919 273T1000 428Q1000 501 964 551T839 643T596 729Q457 766 358 812T207 932T154 1120Q154 1228 212 1308T375 1432T624 1476Q845 1476 971 1365T1097 1045H977Q977 1136 937 1210T818 1330T624
1375Q443 1375 358 1301T273 1123Q273 1048 303 999T415 910T646 829Q795 790 901 743T1063 623T1120 431Q1120 294 1003 214T692 133V211ZM518 775Q369 775 299 711T228 553Q228 476 261 426T381 337T630 252Q772 214 871 168T1023 49T1075 -139Q1075 -308 947
-401T606 -495Q513 -495 424 -473T262 -401T146 -268T103 -64L222 -62Q222 -157 256 -220T347 -322T471 -377T606 -394Q774 -394 864 -322T955 -141Q955 -72 923 -23T811 66T585 147Q439 184 332 232T167 357T109 551Q109 689 220 770T518 852V775Z" />
<glyph unicode="&#xa8;" horiz-adv-x="881" d="M137 1397Q137 1430 159 1453T220 1477Q258 1477 280 1454T302 1397Q302 1364 280 1341T220 1318Q181 1318 159 1341T137 1397ZM575 1396Q575 1429 597 1453T657 1477Q696 1477 718 1453T740 1396Q740 1363 718 1340T657
1317Q619 1317 597 1340T575 1396Z" />
<glyph unicode="&#xa9;" horiz-adv-x="1638" d="M1122 607Q1122 450 1037 372T807 293Q656 293 565 400T474 680V777Q474 949 565 1056T807 1164Q952 1164 1037 1086T1123 851H1024Q1024 966 968 1020T807 1074Q732 1074 680 1035T600 929T573 778V680Q573 552
633 468T807 384Q912 384 967 436T1023 607H1122ZM193 729Q193 590 241 469T376 258T575 117T817 66Q946 66 1059 116T1258 257T1392 469T1441 729Q1441 869 1393 989T1258 1199T1059 1339T817 1389Q688 1389 575 1339T376 1199T242 989T193 729ZM107 729Q107 888
162 1024T315 1261T541 1419T817 1476Q964 1476 1092 1420T1319 1262T1472 1024T1527 729Q1527 570 1472 434T1319 196T1093 36T817 -21Q670 -21 542 36T316 195T163 434T107 729Z" />
<glyph unicode="&#xaa;" horiz-adv-x="907" d="M626 1201Q626 1286 586 1333T464 1380Q375 1380 324 1345T272 1237L165 1243Q165 1344 247 1410T464 1476Q585 1476 660 1407T735 1200V886Q735 837 741 793T761 705H649Q638 740 632 780T626 861V1201ZM656 1058H488Q378
1058 322 1020T266 913Q266 856 304 822T426 787Q477 787 527 811T610 871T643 938L663 858Q649 820 615 782T528 717T407 691Q286 691 222 750T158 909Q158 1018 242 1079T487 1140H655L656 1058Z" />
<glyph unicode="&#xab;" horiz-adv-x="933" d="M245 788L123 789V802L418 1180H524L245 788ZM524 404H418L123 783V796L245 797L524 404ZM554 532L432 533V546L727 924H833L554 532ZM833 148H727L432 527V540L554 541L833 148Z" />
<glyph unicode="&#xac;" horiz-adv-x="1118" d="M937 670H124V776H937V670ZM937 386H817V716H937V386Z" />
<glyph unicode="&#xad;" horiz-adv-x="600" d="M529 592H49V694H529V592Z" />
<glyph unicode="&#xae;" horiz-adv-x="1642" d="M612 667L610 758H831Q906 759 962 797T1018 911Q1018 995 973 1032T810 1070H650V322H552V1160H810Q957 1160 1036 1098T1116 913Q1116 832 1064 778T916 695Q913 694 910 691T903 688Q886 678 882 674T873 668T848
667H612ZM854 734Q998 734 1050 669T1102 509V465Q1102 428 1106 395T1119 338V322H1017Q1007 348 1006 396T1004 466V508Q1004 592 967 629T838 667L854 734ZM188 729Q188 590 236 469T371 258T570 117T813 66Q941 66 1054 116T1253 257T1387 469T1436 729Q1436
869 1388 989T1253 1199T1054 1339T812 1389Q684 1389 571 1339T371 1199T237 989T188 729ZM103 729Q103 888 158 1024T311 1261T537 1419T813 1476Q960 1476 1088 1420T1315 1262T1468 1024T1523 729Q1523 570 1468 434T1315 196T1089 36T813 -21Q666 -21 538
36T311 195T158 434T103 729Z" />
<glyph unicode="&#xaf;" horiz-adv-x="875" d="M756 1344H137V1440H756V1344Z" />
<glyph unicode="&#xb0;" horiz-adv-x="774" d="M144 1227Q144 1295 177 1352T266 1442T389 1476Q456 1476 510 1442T597 1352T630 1227Q630 1158 598 1102T510 1013T389 980Q322 980 267 1013T178 1102T144 1227ZM233 1227Q233 1159 278 1115T389 1071Q455 1071
497 1115T540 1227Q540 1295 498 1340T389 1386Q323 1386 278 1341T233 1227Z" />
<glyph unicode="&#xb1;" horiz-adv-x="1086" d="M1000 728H84V829H1000V728ZM610 289H499V1267H610V289ZM963 0H128V101H963V0Z" />
<glyph unicode="&#xb2;" horiz-adv-x="740" d="M667 665H96V741L386 1024Q460 1095 491 1146T522 1238Q522 1301 482 1339T363 1377Q272 1377 227 1331T182 1216H76Q76 1284 110 1340T208 1431T361 1465Q484 1465 556 1405T628 1239Q628 1188 604 1141T538 1048T443
951L230 753H667V665Z" />
<glyph unicode="&#xb3;" horiz-adv-x="740" d="M345 1107Q437 1107 483 1146T530 1242Q530 1299 490 1338T362 1377Q290 1377 241 1342T191 1246H85Q85 1313 122 1362T222 1438T361 1465Q484 1465 559 1408T635 1244Q635 1192 603 1148T510 1077T363 1050H268V1107H345ZM268
1083H363Q460 1083 524 1059T620 989T652 880Q652 772 570 713T364 654Q292 654 225 678T115 754T72 884H177Q177 822 230 782T367 741Q453 741 499 779T546 884Q546 960 491 993T345 1026H268V1083Z" />
<glyph unicode="&#xb4;" horiz-adv-x="577" d="M316 1536H461L229 1257H125L316 1536Z" />
<glyph unicode="&#xb5;" horiz-adv-x="1125" d="M152 635H263L269 -415H145L152 635ZM850 1082H970V0H854L850 250V1082ZM934 452Q934 316 891 210T754 42T508 -20Q349 -20 251 74T152 390V1082H272V388Q272 272 306 206T396 112T522 84Q654 84 730 135T839 270T872
450L934 452Z" />
<glyph unicode="&#xb6;" horiz-adv-x="974" d="M681 0V520H575Q416 520 307 580T140 747T83 988Q83 1122 140 1228T306 1395T575 1456H802V0H681Z" />
<glyph unicode="&#xb7;" horiz-adv-x="504" d="M163 717Q163 752 186 776T248 801Q288 801 311 777T334 717Q334 683 311 660T248 636Q209 636 186 659T163 717Z" />
<glyph unicode="&#xb8;" horiz-adv-x="499" d="M246 0L235 -65Q297 -73 348 -110T400 -236Q400 -325 323 -380T105 -435L98 -358Q148 -358 194 -346T270 -307T300 -238Q300 -179 257 -158T125 -128L153 0H246Z" />
<glyph unicode="&#xb9;" horiz-adv-x="740" d="M464 665H359V1328L127 1259V1349L451 1455H464V665Z" />
<glyph unicode="&#xba;" horiz-adv-x="923" d="M136 1133Q136 1283 223 1379T458 1476Q609 1476 695 1380T782 1133V1033Q782 883 696 787T460 690Q310 690 223 786T136 1033V1133ZM244 1033Q244 930 296 858T460 786Q568 786 621 858T674 1033V1133Q674 1236
621 1308T458 1380Q350 1380 297 1308T244 1133V1033Z" />
<glyph unicode="&#xbb;" horiz-adv-x="929" d="M395 555L516 554V541L222 162H116L395 555ZM222 944L516 560V547L395 546L116 944H222ZM714 555L835 554V541L541 162H435L714 555ZM541 944L835 560V547L714 546L435 944H541Z" />
<glyph unicode="&#xbc;" horiz-adv-x="1454" d="M460 121L386 169L1097 1307L1171 1259L460 121ZM464 546H359V1209L127 1140V1230L451 1336H464V546ZM1408 187H778L774 253L1171 789H1255L1146 609L888 276H1408V187ZM1281 0H1176V789H1281V0Z" />
<glyph unicode="&#xbd;" horiz-adv-x="1572" d="M450 121L376 169L1087 1307L1161 1259L450 121ZM464 546H359V1209L127 1140V1230L451 1336H464V546ZM1499 0H928V76L1218 359Q1292 430 1323 481T1354 573Q1354 636 1314 674T1195 712Q1104 712 1059 666T1014
551H908Q908 619 942 675T1040 766T1193 800Q1316 800 1388 740T1460 574Q1460 523 1436 476T1370 383T1275 286L1062 88H1499V0Z" />
<glyph unicode="&#xbe;" horiz-adv-x="1564" d="M345 981Q437 981 483 1020T530 1116Q530 1173 490 1212T362 1251Q290 1251 241 1216T191 1120H85Q85 1187 122 1236T222 1312T361 1339Q484 1339 559 1282T635 1118Q635 1066 603 1022T510 951T363 924H268V981H345ZM268
957H363Q460 957 524 933T620 863T652 754Q652 646 570 587T364 528Q292 528 225 552T115 628T72 758H177Q177 696 230 656T367 615Q453 615 499 653T546 758Q546 834 491 867T345 900H268V957ZM570 121L496 169L1207 1307L1281 1259L570 121ZM1518 187H888L884
253L1281 789H1365L1256 609L998 276H1518V187ZM1391 0H1286V789H1391V0Z" />
<glyph unicode="&#xbf;" horiz-adv-x="941" d="M552 688Q551 603 539 551T496 456T404 352Q353 300 308 251T236 140T208 -9Q208 -136 275 -206T469 -277Q586 -277 658 -209T733 -21H853Q852 -138 801 -219T663 -341T469 -383Q289 -383 189 -283T88 -11Q88 86
122 164T213 309T337 438Q380 475 400 512T426 592T432 688H552ZM567 1022Q567 989 546 966T485 942Q447 942 425 965T402 1022Q402 1056 424 1078T485 1101Q524 1101 545 1079T567 1022Z" />
<glyph unicode="&#xc0;" horiz-adv-x="1280" d="M159 0H31L581 1456H671L663 1369L159 0ZM616 1369L610 1456H698L1249 0H1121L616 1369ZM1031 408H258V513H1031V408ZM714 1572H605L378 1851H523L714 1572Z" />
<glyph unicode="&#xc1;" horiz-adv-x="1280" d="M159 0H31L581 1456H671L663 1369L159 0ZM616 1369L610 1456H698L1249 0H1121L616 1369ZM1031 408H258V513H1031V408ZM764 1851H909L677 1572H573L764 1851Z" />
<glyph unicode="&#xc2;" horiz-adv-x="1280" d="M159 0H31L581 1456H671L663 1369L159 0ZM616 1369L610 1456H698L1249 0H1121L616 1369ZM1031 408H258V513H1031V408ZM921 1584V1574H811L642 1757L475 1574H367V1586L605 1841H680L921 1584Z" />
<glyph unicode="&#xc3;" horiz-adv-x="1280" d="M159 0H31L581 1456H671L663 1369L159 0ZM616 1369L610 1456H698L1249 0H1121L616 1369ZM1031 408H258V513H1031V408ZM984 1811Q984 1747 958 1699T887 1625T788 1598Q736 1598 702 1614T640 1652T584 1691T511
1708Q465 1708 433 1676T400 1589L311 1593Q311 1657 337 1704T407 1778T506 1805Q553 1805 587 1789T651 1750T712 1712T784 1695Q830 1695 862 1728T894 1817L984 1811Z" />
<glyph unicode="&#xc4;" horiz-adv-x="1280" d="M159 0H31L581 1456H671L663 1369L159 0ZM616 1369L610 1456H698L1249 0H1121L616 1369ZM1031 408H258V513H1031V408ZM343 1712Q343 1745 365 1768T426 1792Q464 1792 486 1769T508 1712Q508 1679 486 1656T426
1633Q387 1633 365 1656T343 1712ZM781 1711Q781 1744 803 1768T863 1792Q902 1792 924 1768T946 1711Q946 1678 924 1655T863 1632Q825 1632 803 1655T781 1711Z" />
<glyph unicode="&#xc5;" horiz-adv-x="1280" d="M159 0H31L581 1456H671L663 1369L159 0ZM616 1369L610 1456H698L1249 0H1121L616 1369ZM1031 408H258V513H1031V408ZM449 1715Q449 1795 505 1850T643 1906Q724 1906 779 1851T835 1715Q835 1635 780 1582T643
1529Q561 1529 505 1582T449 1715ZM526 1715Q526 1667 559 1633T643 1599Q694 1599 726 1632T759 1715Q759 1765 727 1799T643 1834Q592 1834 559 1800T526 1715Z" />
<glyph unicode="&#xc6;" horiz-adv-x="1865" d="M163 0H17L898 1456H982L966 1359L163 0ZM1059 390H363V502H1059V390ZM1824 0H1091V101H1824V0ZM1126 0H1006L945 1456H1065L1126 0ZM1681 708H1051V809H1681V708ZM1762 1355H1030V1456H1762V1355Z" />
<glyph unicode="&#xc7;" horiz-adv-x="1330" d="M1215 454Q1200 307 1135 201T955 37T679 -20Q514 -20 391 62T200 292T132 636V819Q132 1016 200 1164T393 1394T688 1476Q844 1476 956 1420T1134 1258T1215 1001H1092Q1070 1177 973 1274T688 1371Q553 1371 457
1303T308 1111T255 821V636Q255 477 305 352T449 156T679 84Q808 84 894 125T1028 249T1092 454H1215ZM729 -10L718 -75Q780 -83 831 -120T883 -246Q883 -335 806 -390T588 -445L581 -368Q631 -368 677 -356T753 -317T783 -248Q783 -189 740 -168T608 -138L636
-10H729Z" />
<glyph unicode="&#xc8;" horiz-adv-x="1165" d="M1090 0H271V104H1090V0ZM308 0H185V1456H308V0ZM988 698H271V803H988V698ZM1085 1351H271V1456H1085V1351ZM691 1577H582L355 1856H500L691 1577Z" />
<glyph unicode="&#xc9;" horiz-adv-x="1165" d="M1090 0H271V104H1090V0ZM308 0H185V1456H308V0ZM988 698H271V803H988V698ZM1085 1351H271V1456H1085V1351ZM741 1856H886L654 1577H550L741 1856Z" />
<glyph unicode="&#xca;" horiz-adv-x="1165" d="M1090 0H271V104H1090V0ZM308 0H185V1456H308V0ZM988 698H271V803H988V698ZM1085 1351H271V1456H1085V1351ZM897 1589V1579H787L618 1762L451 1579H343V1591L581 1846H656L897 1589Z" />
<glyph unicode="&#xcb;" horiz-adv-x="1165" d="M1090 0H271V104H1090V0ZM308 0H185V1456H308V0ZM988 698H271V803H988V698ZM1085 1351H271V1456H1085V1351ZM319 1717Q319 1750 341 1773T402 1797Q440 1797 462 1774T484 1717Q484 1684 462 1661T402 1638Q363
1638 341 1661T319 1717ZM757 1716Q757 1749 779 1773T839 1797Q878 1797 900 1773T922 1716Q922 1683 900 1660T839 1637Q801 1637 779 1660T757 1716Z" />
<glyph unicode="&#xcc;" horiz-adv-x="546" d="M335 0H212V1456H335V0ZM345 1577H236L9 1856H154L345 1577Z" />
<glyph unicode="&#xcd;" horiz-adv-x="546" d="M335 0H212V1456H335V0ZM395 1856H540L308 1577H204L395 1856Z" />
<glyph unicode="&#xce;" horiz-adv-x="546" d="M335 0H212V1456H335V0ZM552 1589V1579H442L273 1762L106 1579H-2V1591L236 1846H311L552 1589Z" />
<glyph unicode="&#xcf;" horiz-adv-x="546" d="M335 0H212V1456H335V0ZM-26 1717Q-26 1750 -4 1773T57 1797Q95 1797 117 1774T139 1717Q139 1684 117 1661T57 1638Q18 1638 -4 1661T-26 1717ZM412 1716Q412 1749 434 1773T494 1797Q533 1797 555 1773T577 1716Q577
1683 555 1660T494 1637Q456 1637 434 1660T412 1716Z" />
<glyph unicode="&#xd0;" horiz-adv-x="1342" d="M253 0L255 104H583Q739 104 853 174T1029 370T1091 661V797Q1091 966 1029 1090T855 1282T592 1351H247V1456H592Q774 1456 914 1374T1133 1144T1213 795V661Q1213 461 1134 313T912 82T583 0H253ZM308 0H185V1456H308V0ZM902
690H289V791H902V690Z" />
<glyph unicode="&#xd1;" horiz-adv-x="1455" d="M1269 0H1145L308 1246V0H185V1456H308L1147 210V1456H1269V0ZM1068 1811Q1068 1747 1042 1699T971 1625T872 1598Q820 1598 786 1614T724 1652T668 1691T595 1708Q549 1708 517 1676T484 1589L395 1593Q395 1657
421 1704T491 1778T590 1805Q637 1805 671 1789T735 1750T796 1712T868 1695Q914 1695 946 1728T978 1817L1068 1811Z" />
<glyph unicode="&#xd2;" horiz-adv-x="1387" d="M1260 650Q1260 446 1191 296T994 63T694 -20Q525 -20 397 62T198 295T126 650V806Q126 1010 197 1160T395 1393T692 1476Q865 1476 992 1394T1190 1161T1260 806V650ZM1138 808Q1138 980 1085 1105T933 1299T692
1368Q555 1368 456 1300T303 1106T249 808V650Q249 477 303 351T457 156T694 87Q836 87 935 156T1086 351T1138 650V808ZM763 1584H654L427 1863H572L763 1584Z" />
<glyph unicode="&#xd3;" horiz-adv-x="1387" d="M1260 650Q1260 446 1191 296T994 63T694 -20Q525 -20 397 62T198 295T126 650V806Q126 1010 197 1160T395 1393T692 1476Q865 1476 992 1394T1190 1161T1260 806V650ZM1138 808Q1138 980 1085 1105T933 1299T692
1368Q555 1368 456 1300T303 1106T249 808V650Q249 477 303 351T457 156T694 87Q836 87 935 156T1086 351T1138 650V808ZM813 1863H958L726 1584H622L813 1863Z" />
<glyph unicode="&#xd4;" horiz-adv-x="1387" d="M1260 650Q1260 446 1191 296T994 63T694 -20Q525 -20 397 62T198 295T126 650V806Q126 1010 197 1160T395 1393T692 1476Q865 1476 992 1394T1190 1161T1260 806V650ZM1138 808Q1138 980 1085 1105T933 1299T692
1368Q555 1368 456 1300T303 1106T249 808V650Q249 477 303 351T457 156T694 87Q836 87 935 156T1086 351T1138 650V808ZM970 1596V1586H860L691 1769L524 1586H416V1598L654 1853H729L970 1596Z" />
<glyph unicode="&#xd5;" horiz-adv-x="1387" d="M1260 650Q1260 446 1191 296T994 63T694 -20Q525 -20 397 62T198 295T126 650V806Q126 1010 197 1160T395 1393T692 1476Q865 1476 992 1394T1190 1161T1260 806V650ZM1138 808Q1138 980 1085 1105T933 1299T692
1368Q555 1368 456 1300T303 1106T249 808V650Q249 477 303 351T457 156T694 87Q836 87 935 156T1086 351T1138 650V808ZM1033 1822Q1033 1758 1007 1710T936 1636T837 1609Q785 1609 751 1625T689 1663T633 1702T560 1719Q514 1719 482 1687T449 1600L360 1604Q360
1668 386 1715T456 1789T555 1816Q602 1816 636 1800T700 1761T761 1723T833 1706Q879 1706 911 1739T943 1828L1033 1822Z" />
<glyph unicode="&#xd6;" horiz-adv-x="1387" d="M1260 650Q1260 446 1191 296T994 63T694 -20Q525 -20 397 62T198 295T126 650V806Q126 1010 197 1160T395 1393T692 1476Q865 1476 992 1394T1190 1161T1260 806V650ZM1138 808Q1138 980 1085 1105T933 1299T692
1368Q555 1368 456 1300T303 1106T249 808V650Q249 477 303 351T457 156T694 87Q836 87 935 156T1086 351T1138 650V808ZM392 1724Q392 1757 414 1780T475 1804Q513 1804 535 1781T557 1724Q557 1691 535 1668T475 1645Q436 1645 414 1668T392 1724ZM830 1723Q830
1756 852 1780T912 1804Q951 1804 973 1780T995 1723Q995 1690 973 1667T912 1644Q874 1644 852 1667T830 1723Z" />
<glyph unicode="&#xd7;" d="M94 179L873 974L952 894L173 100L94 179ZM108 894L187 974L967 179L888 100L108 894Z" />
<glyph unicode="&#xd8;" horiz-adv-x="1387" d="M275 -84H171L1172 1505H1275L275 -84ZM1260 650Q1260 446 1191 296T994 63T694 -20Q525 -20 397 62T198 295T126 650V806Q126 1010 197 1160T395 1393T692 1476Q865 1476 992 1394T1190 1161T1260 806V650ZM1138
808Q1138 980 1085 1105T933 1299T692 1368Q555 1368 456 1300T303 1106T249 808V650Q249 477 303 351T457 156T694 87Q836 87 935 156T1086 351T1138 650V808Z" />
<glyph unicode="&#xd9;" horiz-adv-x="1347" d="M1187 1456V470Q1187 306 1118 197T933 34T675 -20Q530 -20 414 34T231 197T163 470V1456H285V470Q285 343 335 257T473 128T675 84Q788 84 876 127T1014 257T1064 470V1456H1187ZM754 1572H645L418 1851H563L754 1572Z" />
<glyph unicode="&#xda;" horiz-adv-x="1347" d="M1187 1456V470Q1187 306 1118 197T933 34T675 -20Q530 -20 414 34T231 197T163 470V1456H285V470Q285 343 335 257T473 128T675 84Q788 84 876 127T1014 257T1064 470V1456H1187ZM804 1851H949L717 1572H613L804 1851Z" />
<glyph unicode="&#xdb;" horiz-adv-x="1347" d="M1187 1456V470Q1187 306 1118 197T933 34T675 -20Q530 -20 414 34T231 197T163 470V1456H285V470Q285 343 335 257T473 128T675 84Q788 84 876 127T1014 257T1064 470V1456H1187ZM961 1584V1574H851L682 1757L515
1574H407V1586L645 1841H720L961 1584Z" />
<glyph unicode="&#xdc;" horiz-adv-x="1347" d="M1187 1456V470Q1187 306 1118 197T933 34T675 -20Q530 -20 414 34T231 197T163 470V1456H285V470Q285 343 335 257T473 128T675 84Q788 84 876 127T1014 257T1064 470V1456H1187ZM383 1712Q383 1745 405 1768T466
1792Q504 1792 526 1769T548 1712Q548 1679 526 1656T466 1633Q427 1633 405 1656T383 1712ZM821 1711Q821 1744 843 1768T903 1792Q942 1792 964 1768T986 1711Q986 1678 964 1655T903 1632Q865 1632 843 1655T821 1711Z" />
<glyph unicode="&#xdd;" horiz-adv-x="1226" d="M611 662L1056 1456H1198L673 549V0H549V549L24 1456H170L611 662ZM735 1845H880L648 1566H544L735 1845Z" />
<glyph unicode="&#xde;" horiz-adv-x="1215" d="M303 1456V0H183V1456H303ZM627 1153Q779 1153 883 1099T1042 951T1096 738Q1096 619 1042 526T884 378T627 324H262V426H627Q752 426 828 472T940 589T976 736Q976 815 941 887T829 1005T627 1051H291L239 1153H627Z" />
<glyph unicode="&#xdf;" horiz-adv-x="1200" d="M271 0H152V1128Q152 1332 249 1438T513 1544Q607 1544 684 1509T809 1406T856 1237Q856 1162 838 1112T795 1021T752 935T733 825Q733 766 769 721T860 634T969 547T1059 444T1096 307Q1096 199 1043 127T903 17T720
-21Q664 -21 603 -10T492 20T415 61L448 161Q486 134 559 107T706 80Q792 80 852 111T944 194T976 307Q976 370 940 417T849 506T741 592T651 693T614 827Q614 895 633 944T676 1034T720 1122T739 1231Q739 1296 709 1343T630 1416T523 1443Q407 1443 339 1370T271
1128V0Z" />
<glyph unicode="&#xe0;" horiz-adv-x="1098" d="M815 752Q815 868 743 935T536 1002Q452 1002 387 973T284 894T246 783L126 784Q126 866 178 938T324 1056T541 1102Q657 1102 745 1063T884 946T935 750V227Q935 171 943 111T968 12V0H840Q828 36 822 90T815 194V752ZM845
538H610Q427 538 324 474T220 298Q220 210 285 148T463 86Q563 86 639 122T765 220T833 352L885 283Q872 233 838 181T748 83T619 9T450 -20Q344 -20 266 20T144 129T100 287Q100 447 232 538T594 630H843L845 538ZM651 1256H542L315 1535H460L651 1256Z" />
<glyph unicode="&#xe1;" horiz-adv-x="1098" d="M815 752Q815 868 743 935T536 1002Q452 1002 387 973T284 894T246 783L126 784Q126 866 178 938T324 1056T541 1102Q657 1102 745 1063T884 946T935 750V227Q935 171 943 111T968 12V0H840Q828 36 822 90T815 194V752ZM845
538H610Q427 538 324 474T220 298Q220 210 285 148T463 86Q563 86 639 122T765 220T833 352L885 283Q872 233 838 181T748 83T619 9T450 -20Q344 -20 266 20T144 129T100 287Q100 447 232 538T594 630H843L845 538ZM701 1535H846L614 1256H510L701 1535Z" />
<glyph unicode="&#xe2;" horiz-adv-x="1098" d="M815 752Q815 868 743 935T536 1002Q452 1002 387 973T284 894T246 783L126 784Q126 866 178 938T324 1056T541 1102Q657 1102 745 1063T884 946T935 750V227Q935 171 943 111T968 12V0H840Q828 36 822 90T815 194V752ZM845
538H610Q427 538 324 474T220 298Q220 210 285 148T463 86Q563 86 639 122T765 220T833 352L885 283Q872 233 838 181T748 83T619 9T450 -20Q344 -20 266 20T144 129T100 287Q100 447 232 538T594 630H843L845 538ZM857 1268V1258H747L578 1441L411 1258H303V1270L541
1525H616L857 1268Z" />
<glyph unicode="&#xe3;" horiz-adv-x="1098" d="M815 752Q815 868 743 935T536 1002Q452 1002 387 973T284 894T246 783L126 784Q126 866 178 938T324 1056T541 1102Q657 1102 745 1063T884 946T935 750V227Q935 171 943 111T968 12V0H840Q828 36 822 90T815 194V752ZM845
538H610Q427 538 324 474T220 298Q220 210 285 148T463 86Q563 86 639 122T765 220T833 352L885 283Q872 233 838 181T748 83T619 9T450 -20Q344 -20 266 20T144 129T100 287Q100 447 232 538T594 630H843L845 538ZM921 1495Q921 1431 895 1383T824 1309T725 1282Q673
1282 639 1298T577 1336T521 1375T448 1392Q402 1392 370 1360T337 1273L248 1277Q248 1341 274 1388T344 1462T443 1489Q490 1489 524 1473T588 1434T649 1396T721 1379Q767 1379 799 1412T831 1501L921 1495Z" />
<glyph unicode="&#xe4;" horiz-adv-x="1098" d="M815 752Q815 868 743 935T536 1002Q452 1002 387 973T284 894T246 783L126 784Q126 866 178 938T324 1056T541 1102Q657 1102 745 1063T884 946T935 750V227Q935 171 943 111T968 12V0H840Q828 36 822 90T815 194V752ZM845
538H610Q427 538 324 474T220 298Q220 210 285 148T463 86Q563 86 639 122T765 220T833 352L885 283Q872 233 838 181T748 83T619 9T450 -20Q344 -20 266 20T144 129T100 287Q100 447 232 538T594 630H843L845 538ZM280 1396Q280 1429 302 1452T363 1476Q401 1476
423 1453T445 1396Q445 1363 423 1340T363 1317Q324 1317 302 1340T280 1396ZM718 1395Q718 1428 740 1452T800 1476Q839 1476 861 1452T883 1395Q883 1362 861 1339T800 1316Q762 1316 740 1339T718 1395Z" />
<glyph unicode="&#xe5;" horiz-adv-x="1098" d="M815 752Q815 868 743 935T536 1002Q452 1002 387 973T284 894T246 783L126 784Q126 866 178 938T324 1056T541 1102Q657 1102 745 1063T884 946T935 750V227Q935 171 943 111T968 12V0H840Q828 36 822 90T815 194V752ZM845
538H610Q427 538 324 474T220 298Q220 210 285 148T463 86Q563 86 639 122T765 220T833 352L885 283Q872 233 838 181T748 83T619 9T450 -20Q344 -20 266 20T144 129T100 287Q100 447 232 538T594 630H843L845 538ZM387 1400Q387 1480 443 1535T581 1591Q662 1591
717 1536T773 1400Q773 1320 718 1267T581 1214Q499 1214 443 1267T387 1400ZM464 1400Q464 1352 497 1318T581 1284Q632 1284 664 1317T697 1400Q697 1450 665 1484T581 1519Q530 1519 497 1485T464 1400Z" />
<glyph unicode="&#xe6;" horiz-adv-x="1733" d="M781 720Q781 852 718 926T528 1001Q389 1001 311 933T232 766L114 778Q114 872 165 945T310 1060T528 1102Q695 1102 797 1006T899 718V218L781 183V720ZM814 536H527Q419 536 348 502T241 412T206 290Q206 196
269 138T458 80Q521 80 581 100T690 152T769 219T803 283L878 207Q853 156 796 103T651 15T441 -20Q270 -20 178 65T86 294Q86 450 198 541T525 632H814V536ZM1266 -20Q1111 -20 1004 48T842 236T787 510V564Q787 722 845 843T1006 1033T1236 1102Q1438 1102 1548
978T1659 638V538H853V636H1539V667Q1539 760 1507 835T1408 956T1236 1001Q1131 1001 1056 942T942 784T902 564V510Q902 392 940 295T1058 139T1266 81Q1378 81 1456 117T1589 200L1636 112Q1608 85 1560 54T1439 2T1266 -20Z" />
<glyph unicode="&#xe7;" horiz-adv-x="1056" d="M556 81Q632 81 698 110T808 196T858 335H973Q968 232 910 152T760 26T556 -20Q405 -20 302 51T147 245T95 520V562Q95 715 147 837T302 1030T555 1102Q671 1102 763 1055T912 922T973 718H858Q853 805 812 868T704
966T555 1001Q433 1001 358 939T248 777T214 562V520Q214 405 248 305T357 143T556 81ZM590 -10L579 -75Q641 -83 692 -120T744 -246Q744 -335 667 -390T449 -445L442 -368Q492 -368 538 -356T614 -317T644 -248Q644 -189 601 -168T469 -138L497 -10H590Z" />
<glyph unicode="&#xe8;" horiz-adv-x="1059" d="M575 -20Q434 -20 325 48T153 236T90 511V554Q90 721 154 844T324 1034T553 1102Q691 1102 787 1039T932 863T982 607V534H163V635H862V649Q860 740 826 820T723 950T553 1001Q452 1001 374 944T253 787T210 554V511Q210
391 256 294T387 139T580 81Q676 81 750 116T883 229L959 172Q906 93 814 37T575 -20ZM638 1256H529L302 1535H447L638 1256Z" />
<glyph unicode="&#xe9;" horiz-adv-x="1059" d="M575 -20Q434 -20 325 48T153 236T90 511V554Q90 721 154 844T324 1034T553 1102Q691 1102 787 1039T932 863T982 607V534H163V635H862V649Q860 740 826 820T723 950T553 1001Q452 1001 374 944T253 787T210 554V511Q210
391 256 294T387 139T580 81Q676 81 750 116T883 229L959 172Q906 93 814 37T575 -20ZM688 1535H833L601 1256H497L688 1535Z" />
<glyph unicode="&#xea;" horiz-adv-x="1059" d="M575 -20Q434 -20 325 48T153 236T90 511V554Q90 721 154 844T324 1034T553 1102Q691 1102 787 1039T932 863T982 607V534H163V635H862V649Q860 740 826 820T723 950T553 1001Q452 1001 374 944T253 787T210 554V511Q210
391 256 294T387 139T580 81Q676 81 750 116T883 229L959 172Q906 93 814 37T575 -20ZM844 1268V1258H734L565 1441L398 1258H290V1270L528 1525H603L844 1268Z" />
<glyph unicode="&#xeb;" horiz-adv-x="1059" d="M575 -20Q434 -20 325 48T153 236T90 511V554Q90 721 154 844T324 1034T553 1102Q691 1102 787 1039T932 863T982 607V534H163V635H862V649Q860 740 826 820T723 950T553 1001Q452 1001 374 944T253 787T210 554V511Q210
391 256 294T387 139T580 81Q676 81 750 116T883 229L959 172Q906 93 814 37T575 -20ZM266 1396Q266 1429 288 1452T349 1476Q387 1476 409 1453T431 1396Q431 1363 409 1340T349 1317Q310 1317 288 1340T266 1396ZM704 1395Q704 1428 726 1452T786 1476Q825 1476
847 1452T869 1395Q869 1362 847 1339T786 1316Q748 1316 726 1339T704 1395Z" />
<glyph unicode="&#xec;" horiz-adv-x="456" d="M288 0H169V1082H288V0ZM302 1244H193L-34 1523H111L302 1244Z" />
<glyph unicode="&#xed;" horiz-adv-x="456" d="M288 0H169V1082H288V0ZM353 1523H498L266 1244H162L353 1523Z" />
<glyph unicode="&#xee;" horiz-adv-x="456" d="M288 0H169V1082H288V0ZM509 1256V1246H399L230 1429L63 1246H-45V1258L193 1513H268L509 1256Z" />
<glyph unicode="&#xef;" horiz-adv-x="456" d="M288 0H169V1082H288V0ZM-69 1384Q-69 1417 -47 1440T14 1464Q52 1464 74 1441T96 1384Q96 1351 74 1328T14 1305Q-25 1305 -47 1328T-69 1384ZM369 1383Q369 1416 391 1440T451 1464Q490 1464 512 1440T534 1383Q534
1350 512 1327T451 1304Q413 1304 391 1327T369 1383Z" />
<glyph unicode="&#xf0;" horiz-adv-x="1192" d="M335 1579Q562 1511 723 1384T970 1068T1055 624V535Q1055 371 999 246T843 50T616 -20Q479 -20 374 45T209 220T150 466Q150 621 204 732T357 904T588 965Q700 965 795 917T948 785T1006 598L956 594Q956 634 936
680T872 768T764 835T609 861Q495 861 420 811T308 671T270 466Q270 372 310 284T429 140T620 84Q717 84 787 142T897 303T936 535V626Q936 817 887 958T749 1199T546 1366T296 1475L335 1579ZM484 1102L434 1175L939 1488L990 1415L484 1102Z" />
<glyph unicode="&#xf1;" horiz-adv-x="1126" d="M276 0H156V1082H271L276 851V0ZM196 639Q204 766 259 871T408 1039T627 1102Q736 1102 813 1062T931 935T973 704V0H853V705Q853 817 822 881T734 972T599 999Q513 999 449 962T341 865T274 737T250 609L196 639ZM917
1494Q917 1430 891 1382T820 1308T721 1281Q669 1281 635 1297T573 1335T517 1374T444 1391Q398 1391 366 1359T333 1272L244 1276Q244 1340 270 1387T340 1461T439 1488Q486 1488 520 1472T584 1433T645 1395T717 1378Q763 1378 795 1411T827 1500L917 1494Z"
/>
<glyph unicode="&#xf2;" horiz-adv-x="1148" d="M91 557Q91 715 151 838T319 1031T573 1102Q720 1102 829 1032T997 838T1057 557V524Q1057 367 998 244T830 51T575 -20Q428 -20 320 50T151 244T91 524V557ZM211 524Q211 406 253 305T376 143T575 81Q692 81 772
142T895 305T937 524V557Q937 674 895 775T772 938T573 1001Q456 1001 375 939T253 775T211 557V524ZM643 1255H534L307 1534H452L643 1255Z" />
<glyph unicode="&#xf3;" horiz-adv-x="1148" d="M91 557Q91 715 151 838T319 1031T573 1102Q720 1102 829 1032T997 838T1057 557V524Q1057 367 998 244T830 51T575 -20Q428 -20 320 50T151 244T91 524V557ZM211 524Q211 406 253 305T376 143T575 81Q692 81 772
142T895 305T937 524V557Q937 674 895 775T772 938T573 1001Q456 1001 375 939T253 775T211 557V524ZM693 1534H838L606 1255H502L693 1534Z" />
<glyph unicode="&#xf4;" horiz-adv-x="1148" d="M91 557Q91 715 151 838T319 1031T573 1102Q720 1102 829 1032T997 838T1057 557V524Q1057 367 998 244T830 51T575 -20Q428 -20 320 50T151 244T91 524V557ZM211 524Q211 406 253 305T376 143T575 81Q692 81 772
142T895 305T937 524V557Q937 674 895 775T772 938T573 1001Q456 1001 375 939T253 775T211 557V524ZM849 1267V1257H739L570 1440L403 1257H295V1269L533 1524H608L849 1267Z" />
<glyph unicode="&#xf5;" horiz-adv-x="1148" d="M91 557Q91 715 151 838T319 1031T573 1102Q720 1102 829 1032T997 838T1057 557V524Q1057 367 998 244T830 51T575 -20Q428 -20 320 50T151 244T91 524V557ZM211 524Q211 406 253 305T376 143T575 81Q692 81 772
142T895 305T937 524V557Q937 674 895 775T772 938T573 1001Q456 1001 375 939T253 775T211 557V524ZM913 1494Q913 1430 887 1382T816 1308T717 1281Q665 1281 631 1297T569 1335T513 1374T440 1391Q394 1391 362 1359T329 1272L240 1276Q240 1340 266 1387T336
1461T435 1488Q482 1488 516 1472T580 1433T641 1395T713 1378Q759 1378 791 1411T823 1500L913 1494Z" />
<glyph unicode="&#xf6;" horiz-adv-x="1148" d="M91 557Q91 715 151 838T319 1031T573 1102Q720 1102 829 1032T997 838T1057 557V524Q1057 367 998 244T830 51T575 -20Q428 -20 320 50T151 244T91 524V557ZM211 524Q211 406 253 305T376 143T575 81Q692 81 772
142T895 305T937 524V557Q937 674 895 775T772 938T573 1001Q456 1001 375 939T253 775T211 557V524ZM271 1395Q271 1428 293 1451T354 1475Q392 1475 414 1452T436 1395Q436 1362 414 1339T354 1316Q315 1316 293 1339T271 1395ZM709 1394Q709 1427 731 1451T791
1475Q830 1475 852 1451T874 1394Q874 1361 852 1338T791 1315Q753 1315 731 1338T709 1394Z" />
<glyph unicode="&#xf7;" horiz-adv-x="1164" d="M1070 644H72V761H1070V644ZM495 1088Q495 1123 517 1147T580 1172Q619 1172 642 1148T666 1088Q666 1054 643 1031T580 1007Q540 1007 518 1030T495 1088ZM495 291Q495 326 517 350T580 375Q619 375 642 351T666
291Q666 257 643 234T580 210Q540 210 518 233T495 291Z" />
<glyph unicode="&#xf8;" horiz-adv-x="1141" d="M294 -140H201L864 1214H957L294 -140ZM89 557Q89 715 149 838T317 1031T571 1102Q719 1102 827 1032T995 838T1055 557V524Q1055 367 996 244T828 51T573 -20Q427 -20 318 50T149 244T89 524V557ZM209 524Q209
406 251 305T374 143T573 81Q691 81 771 142T893 305T935 524V557Q935 674 893 775T771 938T571 1001Q455 1001 374 939T251 775T209 557V524Z" />
<glyph unicode="&#xf9;" horiz-adv-x="1125" d="M850 1082H970V0H854L850 250V1082ZM934 452Q934 316 891 210T754 42T508 -20Q349 -20 251 74T152 390V1082H272V388Q272 272 306 206T396 112T522 84Q654 84 730 135T839 270T872 450L934 452ZM646 1257H537L310
1536H455L646 1257Z" />
<glyph unicode="&#xfa;" horiz-adv-x="1125" d="M850 1082H970V0H854L850 250V1082ZM934 452Q934 316 891 210T754 42T508 -20Q349 -20 251 74T152 390V1082H272V388Q272 272 306 206T396 112T522 84Q654 84 730 135T839 270T872 450L934 452ZM695 1536H840L608
1257H504L695 1536Z" />
<glyph unicode="&#xfb;" horiz-adv-x="1125" d="M850 1082H970V0H854L850 250V1082ZM934 452Q934 316 891 210T754 42T508 -20Q349 -20 251 74T152 390V1082H272V388Q272 272 306 206T396 112T522 84Q654 84 730 135T839 270T872 450L934 452ZM852 1269V1259H742L573
1442L406 1259H298V1271L536 1526H611L852 1269Z" />
<glyph unicode="&#xfc;" horiz-adv-x="1125" d="M850 1082H970V0H854L850 250V1082ZM934 452Q934 316 891 210T754 42T508 -20Q349 -20 251 74T152 390V1082H272V388Q272 272 306 206T396 112T522 84Q654 84 730 135T839 270T872 450L934 452ZM274 1397Q274 1430
296 1453T357 1477Q395 1477 417 1454T439 1397Q439 1364 417 1341T357 1318Q318 1318 296 1341T274 1397ZM712 1396Q712 1429 734 1453T794 1477Q833 1477 855 1453T877 1396Q877 1363 855 1340T794 1317Q756 1317 734 1340T712 1396Z" />
<glyph unicode="&#xfd;" horiz-adv-x="974" d="M815 1082H944L486 -174Q472 -211 451 -256T395 -342T309 -410T183 -437Q170 -437 152 -435T117 -430T91 -424V-324Q102 -327 123 -329T152 -331Q250 -331 302 -282T388 -135L477 108L815 1082ZM508 152L540 28L452
-21L33 1082H163L508 152ZM635 1536H780L548 1257H444L635 1536Z" />
<glyph unicode="&#xfe;" horiz-adv-x="1151" d="M279 -416H160V1536H279V-416ZM1032 530Q1032 368 984 244T843 50T619 -20Q488 -20 397 32T253 177T183 388V667Q203 798 256 895T399 1047T616 1102Q749 1102 841 1035T983 843T1032 551V530ZM911 551Q911 677
877 778T771 939T590 998Q504 998 444 969T343 894T280 792T246 685V364Q265 288 307 224T419 120T592 81Q701 81 771 141T876 302T911 530V551Z" />
<glyph unicode="&#xff;" horiz-adv-x="974" d="M815 1082H944L486 -174Q472 -211 451 -256T395 -342T309 -410T183 -437Q170 -437 152 -435T117 -430T91 -424V-324Q102 -327 123 -329T152 -331Q250 -331 302 -282T388 -135L477 108L815 1082ZM508 152L540 28L452
-21L33 1082H163L508 152ZM214 1397Q214 1430 236 1453T297 1477Q335 1477 357 1454T379 1397Q379 1364 357 1341T297 1318Q258 1318 236 1341T214 1397ZM652 1396Q652 1429 674 1453T734 1477Q773 1477 795 1453T817 1396Q817 1363 795 1340T734 1317Q696 1317
674 1340T652 1396Z" />
<glyph unicode="&#x2013;" horiz-adv-x="1334" d="M1416 687H414V788H1416V687Z" />
<glyph unicode="&#x2014;" horiz-adv-x="1580" d="M1461 687H125V788H1461V687Z" />
<glyph unicode="&#x2018;" horiz-adv-x="365" d="M99 1234Q99 1295 115 1353T164 1464T239 1555L310 1503Q264 1441 241 1378T217 1236V1122H99V1234Z" />
<glyph unicode="&#x2019;" horiz-adv-x="365" d="M274 1421Q274 1360 257 1301T209 1191T134 1100L63 1151Q109 1214 132 1276T155 1419V1536H274V1421Z" />
<glyph unicode="&#x201a;" horiz-adv-x="354" d="M253 90Q253 29 236 -30T188 -140T113 -231L42 -180Q88 -117 111 -54T134 87V206H253V90Z" />
<glyph unicode="&#x201c;" horiz-adv-x="612" d="M100 1234Q100 1295 116 1353T165 1464T240 1555L311 1503Q265 1441 242 1378T218 1236V1122H100V1234ZM351 1234Q351 1295 367 1353T416 1464T491 1555L562 1503Q516 1441 493 1378T469 1236V1122H351V1234Z" />
<glyph unicode="&#x201d;" horiz-adv-x="617" d="M280 1421Q280 1360 263 1301T215 1191T140 1100L69 1151Q115 1214 138 1276T161 1419V1536H280V1421ZM524 1421Q524 1360 507 1301T459 1191T384 1100L313 1151Q359 1214 382 1276T405 1419V1536H524V1421Z" />
<glyph unicode="&#x201e;" horiz-adv-x="594" d="M253 90Q253 28 236 -33T188 -146T113 -240L42 -189Q88 -124 111 -59T134 87V237H253V90ZM487 90Q487 28 470 -33T422 -146T346 -240L275 -189Q321 -124 344 -59T367 87V237H487V90Z" />
<glyph unicode="&#x2022;" horiz-adv-x="663" d="M147 752Q147 830 196 880T331 931Q418 931 468 880T518 752V717Q518 640 468 591T332 541Q247 541 197 590T147 717V752Z" />
<glyph unicode="&#x2039;" horiz-adv-x="609" d="M230 552L108 553V566L403 944H509L230 552ZM509 168H403L108 547V560L230 561L509 168Z" />
<glyph unicode="&#x203a;" horiz-adv-x="609" d="M377 555L498 554V541L204 162H98L377 555ZM204 944L498 560V547L377 546L98 944H204Z" />
</font>
</defs>
</svg>
